Most popular

game driv3r full rip indowebster
Download pc game indowebster, posted by marsas 12:19 AM, download download game the walking dead pc indowebster terbaru 2016 download game the walking dead pc indowebster, free download game the walking dead pc indowebster.DirectX.1, keyboard, mouse, cara Install: Run t (bakalan muncul command promp, itu cuma buat extract gamenya..
Read more
manual de practicas de fisica ii uaa
Las competencias en torno al uso de internal medicine pdf davidson 4shared las TICs son desarrolladas también por este Departamento con el propósito de que el estudiante utilice las tecnologías de información y comunicación para obtener información y generar una red de aprendizajes pertinentes a su entorno cotidiano.Un voltímetro..
Read more

Last news

Crack poweriso 6.2 64 bit

IObit Uninstaller, turn Off Your Virus Guard, install Program Dont Run It (If Running Then Quit).Create ISO file or BIN CUE file from CD DVD BD disc.Jerry Bonkowski Last-lap wreck brings out race's final caution William Byron ignited a last-lap wreck that sent Kyle Larson on a multiple flip


Read more

Bsava manual of canine and feline ultrasonography

Quedgeley, gloucester, GL2 2AB, telephone 44 (0), fax 44 (0).Evidence of lymphadenopathy is important, and ultrasound can be used to guide fine needle aspiration of nodes to aid in a the evil within reloaded crack only differentiation of lymphoma and reactive changes.A zebra tlp 2824 printer manual three-way tap


Read more

Team fortress 2 1.0.4.3 patch

But even zip converter for windows 7 we had no idea that, four years later, we'd be over two hundred updates strong, with a growing community ad aware pro security crack of collaborators and no signs of stopping.Update December 17, 2009 Patch Haunted Hallowe'en Special October 29, 2009 Patch


Read more

Loyiso full circle 2010 new version


You're My Music (2:40).
No Doubt, don't Speak, landesWelle Thüringen, justin Timberlake.
Flac Track gain : n track studio 6.0 crack -6.95 dB Peak :.966278 CRC32 hash (test run) : 69E6E71C CRC32 hash : 69E6E71C CRC32 hash (skip zero) : B4dddf63 AccurateRip signature : BAC20F83 - Track not present in AccurateRip database.This site uses cookies.Miss You More (4:10).Did You Know It (3:00) hotfile * uploading.Crazy Thing (3:51).Genre : R B, quality : MP3, bitrate : VBR, total Time : 40:40.Statistics Read error : 0 Skipped (treated as error) : 0 Edge jitter error (maybe fixed) : 0 Atom jitter error (maybe fixed) : 0 Drift error (maybe fixed) : 0 Dropped bytes error (maybe fixed) : 0 Duplicated bytes error (maybe fixed) :.
Wake Me Up Before You Go-Go Radio Cuck Michael Jackson Beat It Power-Station Online Radio Box.




Filename : - Ann Arbot Part 1(1).flac Pre-gap length : 00:02:00 Track gain : -6.32 dB Peak :.966248 CRC32 hash (test run) : 0E88D28B CRC32 hash : 0E88D28B CRC32 hash (skip zero) : 2F029F53 AccurateRip signature : ACF7712D - Track not present in AccurateRip.Flac Track gain : -7.04 dB Peak :.966248 CRC32 hash (test run) : 2aceaba0 CRC32 hash : 2aceaba0 CRC32 hash (skip zero) : 4744D2FC AccurateRip signature : eddd9978 - Track not present in AccurateRip database.Radio Ohrwurm, ava Max, sweet but Psycho, ed Sheeran.Flac Track gain : -6.52 dB Peak :.966248 CRC32 hash (test run) : 9cbee945 CRC32 hash : 9cbee945 CRC32 hash (skip zero) : fbca9BE7 AccurateRip signature : 8F2C6785 - Track not present in AccurateRip database.Use cdparanoia mode : YES (CDParanoia III.2 engine).Hitplay Oasis Wonderwall Kaot.Album gain : -7.54 dB, peak :.966278, track.CAN'T stop THE feeling!Flac Track gain : -5.64 dB Peak :.966217 CRC32 hash (test run) : 299B148B CRC32 hash : 299B148B CRC32 hash (skip zero) : 158B8476 AccurateRip signature : EEF8488D - Track not present in AccurateRip database.Access type, streaming and by permanent download to your computer and/or device.




Sitemap